StaxRip Encoding-Frontend (Diskussion)

  • Hallo,


    erstmal vielen Danke für das Klasse Tool!


    Ich habe bis vorgestern unter Windows 7 mit StaxRip 1.3.1.0 gearbeitet und war sehr zu frieden. Ich hatte nur vermisst Jobs per Drag and Drop in die Jobliste hinzuzufügen. Bei der Umstellung auf ein neueres StaxRip lief einiges nicht mehr so wie gewünscht deswegen ich einfach bei 1.3.1.0 geblieben bin.


    Nun ist Windows 7 Support ausgelaufen, sodass ich auf Windows 10 umsteigen musste und ein Update auf StaxRip 2.0.6. ICh habe ein paar Fragen bzw. Probleme:

    1. Leider vermisste ich ProjektX um DVB-Aufnahmen auf Fehler zu überprüfen ggf. zu korrigieren und zu Demuxen. Ein Demuxer mit Fehlerkorrektur ist nicht dabei, oder? Mein bisheriger Work-A-Round ist mit StaxRip 1.3.1.0 demuxen.


    2. Ich kann keine mit Xvid Codierten Videos mehr als AVI Speichern. Es kommt:

    -------------------------------- Error --------------------------------

    Output file missing


    Ich möchte den Container für Serien jetzt nicht unterschiedlich machen, sodass ich sehr gerne bei avi bleiben möchte.

    Habe ich einfach etwas falsch eingestellt, oder geht das nicht mehr mit Staxrip?


    3. Was ist der Qualitativ hochwertigste deinterlancer? yadifmod2, oder?


    4. Gibt es eine Möglichkeit, das er wieder nachfragt welche Template genutzt werden soll, wenn ich ein FIle (per Drag and Drop) lade?





    Als Fallback wollte ich StaxRip 1.3.1.0 (vorerst) weiter nutzen leider, ist das Bild beim schneiden (Preview) grün. Alte srip-Files lassen sich laden und scheinen korrekt verarbeitet zu werden. Woran könnte das leigen bzw. wie kann ich das fixen?



    Ich wäre für jeden Tipp und Hilfe dankbar.

  • Meine StaxRip 2.0.6 Fehler Meldung sehen wie folgt aus:


    Error Video encoding command line encoder: XviD 2 pass (2.0.6.0)


    Video encoding command line encoder: XviD 2 pass failed with exit code: -1 (0xFFFFFFFF)



    ----------- Video encoding command line encoder: XviD 2 pass -----------


    cmd.exe /C call "_encode.bat"


    @echo off

    @set PATH=E:\Programme\Video\StaxRip-x64-2.0.6.0\Apps\Encoders\xvid_encraw\;%PATH%


    xvid_encraw -cq 2 -smoother 0 -max_key_interval 250 -nopacked -vhqmode 4 -qpel -notrellis -max_bframes 1 -bvhq -bquant_ratio 162 -bquant_offset 0 -threads 1 -i "" -avi "_out.avi" -par 16:11


    xvid_encraw - raw mpeg4 bitstream encoder written by Christoph Lampert

    Trying to retrieve width and height from input header

    Error opening input file


    StaxRip.ErrorAbortException: Video encoding command line encoder: XviD 2 pass failed with exit code: -1 (0xFFFFFFFF)



    ----------- Video encoding command line encoder: XviD 2 pass -----------


    cmd.exe /C call "_encode.bat"


    @echo off

    @set PATH=E:\Programme\Video\StaxRip-x64-2.0.6.0\Apps\Encoders\xvid_encraw\;%PATH%


    xvid_encraw -cq 2 -smoother 0 -max_key_interval 250 -nopacked -vhqmode 4 -qpel -notrellis -max_bframes 1 -bvhq -bquant_ratio 162 -bquant_offset 0 -threads 1 -i "" -avi "_out.avi" -par 16:11


    xvid_encraw - raw mpeg4 bitstream encoder written by Christoph Lampert

    Trying to retrieve width and height from input header

    Error opening input file



    bei StaxRip.Proc.Start() in D:\Projekte\VB\staxrip\General\Proc.vb:Zeile 340.

    bei StaxRip.BatchEncoder.Encode() in D:\Projekte\VB\staxrip\Encoding\VideoEncoder.vb:Zeile 615.

  • Eine weiter Fehlermeldung:



    ------------------------ MediaInfo Source File ------------------------


    E:\VDR\aa_win10\Law_&_Order_-_Special_Victims_Unit\Law_&_Order#3A_Special_Victims_Unit\Das_Buch_Esther\2020-01-15.21.05.5-0.rec\00001 temp files\00001.d2v


    General

    Complete name : E:\VDR\aa_win10\Law_&_Order_-_Special_Victims_Unit\Law_&_Order#3A_Special_Victims_Unit\Das_Buch_Esther\2020-01-15.21.05.5-0.rec\00001 temp files\00001.d2v

    File size : 528 KiB


    --------------------------- AviSynth Script ---------------------------


    LoadPlugin("E:\Programme\Video\StaxRip-x64-2.0.6.0\Apps\Plugins\avs\MPEG2DecPlus\MPEG2DecPlus.dll")

    LoadPlugin("E:\Programme\Video\StaxRip-x64-2.0.6.0\Apps\Plugins\avs\yadifmod2\yadifmod2.dll")

    MPEG2Source("E:\VDR\aa_win10\Law_&_Order_-_Special_Victims_Unit\Law_&_Order#3A_Special_Victims_Unit\Das_Buch_Esther\2020-01-15.21.05.5-0.rec\00001 temp files\00001.d2v")

    yadifmod2()

    Trim(10298, 25890) + Trim(37590, 67264) + Trim(80571, 96336)


    -------------------------- Script Properties --------------------------


    Source Frame Count : 112486

    Source Frame Rate : 25.000000

    Source Duration : 01:14:59.4400000

    Target Frame Count : 61034

    Target Frame Rate : 25.000000

    Target Duration : 00:40:41.3600000


    ----------------------- MediaInfo Audio Source 1 -----------------------


    General

    Complete name : E:\VDR\aa_win10\Law_&_Order_-_Special_Victims_Unit\Law_&_Order#3A_Special_Victims_Unit\Das_Buch_Esther\2020-01-15.21.05.5-0.rec\00001 temp files\00001.mp2

    Format : MPEG Audio

    File size : 103 MiB

    Duration : 1 h 14 min

    Overall bit rate mode : Constant

    Overall bit rate : 192 kb/s


    Audio

    Format : MPEG Audio

    Format version : Version 1

    Format profile : Layer 2

    Format settings : Joint stereo / Intensity Stereo + MS Stereo

    Duration : 1 h 14 min

    Bit rate mode : Constant

    Bit rate : 192 kb/s

    Channel(s) : 2 channels

    Sampling rate : 48.0 kHz

    Frame rate : 41.667 FPS (1152 SPF)

    Compression mode : Lossy

    Stream size : 103 MiB (100%)


    - Create avi file for subtitle cutting using ffmpeg 2019-09-27 Patman -


    E:\Programme\Video\StaxRip-x64-2.0.6.0\Apps\Encoders\ffmpeg\ffmpeg.exe -f lavfi -i color=c=black:s=16x16:d=4499.440000000:r=25.000000000 -y -hide_banner -c:v copy "E:\VDR\aa_win10\Law_&_Order_-_Special_Victims_Unit\Law_&_Order#3A_Special_Victims_Unit\Das_Buch_Esther\2020-01-15.21.05.5-0.rec\00001 temp files\00001_temp\00001_cut_mm.avi"


    mkvmerge cannot cut subtitles without video so a avi file has to be created


    Input #0, lavfi, from 'color=c=black:s=16x16:d=4499.440000000:r=25.000000000':

    Duration: N/A, start: 0.000000, bitrate: N/A

    Stream #0:0: Video: rawvideo (I420 / 0x30323449), yuv420p, 16x16 [SAR 1:1 DAR 1:1], 25 tbr, 25 tbn, 25 tbc

    Output #0, avi, to 'E:\VDR\aa_win10\Law_&_Order_-_Special_Victims_Unit\Law_&_Order#3A_Special_Victims_Unit\Das_Buch_Esther\2020-01-15.21.05.5-0.rec\00001 temp files\00001_temp\00001_cut_mm.avi':

    Metadata:

    ISFT : Lavf58.33.100

    Stream #0:0: Video: rawvideo (I420 / 0x30323449), yuv420p, 16x16 [SAR 1:1 DAR 1:1], q=2-31, 25 tbr, 25 tbn, 25 tbc

    Stream mapping:

    Stream #0:0 -> #0:0 (copy)

    Press [q] to stop, [?] for help

    [Parsed_color_0 @ 000001b0aea8c9c0] EOF timestamp not reliable

    video:42182kB audio:0kB subtitle:0kB other streams:0kB global headers:0kB muxing overhead: 6.263340%


    Start: 21:31:22

    End: 21:31:23

    Duration: 00:00:01


    General

    Complete name : E:\VDR\aa_win10\Law_&_Order_-_Special_Victims_Unit\Law_&_Order#3A_Special_Victims_Unit\Das_Buch_Esther\2020-01-15.21.05.5-0.rec\00001 temp files\00001_temp\00001_cut_mm.avi

    Format : AVI

    Format/Info : Audio Video Interleave

    File size : 43.8 MiB

    Duration : 1 h 14 min

    Overall bit rate : 81.6 kb/s

    Writing application : Lavf58.33.100


    Video

    ID : 0

    Format : YUV

    Codec ID : I420

    Codec ID/Info : 8 bit Y plane followed by 8 bit 2x2 subsampled U and V planes.

    Duration : 1 h 14 min

    Bit rate : 76.8 kb/s

    Width : 16 pixels

    Height : 16 pixels

    Display aspect ratio : 1.000

    Frame rate : 25.000 FPS

    Scan type : Progressive

    Compression mode : Lossless

    Bits/(Pixel*Frame) : 12.000

    Stream size : 41.2 MiB (94%)


    ------------------ Cut subtitle using mkvmerge 39.0.0 ------------------


    E:\Programme\Video\StaxRip-x64-2.0.6.0\Apps\Support\MKVToolNix\mkvmerge.exe -o "E:\VDR\aa_win10\Law_&_Order_-_Special_Victims_Unit\Law_&_Order#3A_Special_Victims_Unit\Das_Buch_Esther\2020-01-15.21.05.5-0.rec\00001 temp files\00001_temp\00001 ID0_cut_sub.mkv" "E:\VDR\aa_win10\Law_&_Order_-_Special_Victims_Unit\Law_&_Order#3A_Special_Victims_Unit\Das_Buch_Esther\2020-01-15.21.05.5-0.rec\00001 temp files\00001_temp\00001_cut_mm.avi" "E:\VDR\aa_win10\Law_&_Order_-_Special_Victims_Unit\Law_&_Order#3A_Special_Victims_Unit\Das_Buch_Esther\2020-01-15.21.05.5-0.rec\00001 temp files\00001.sup" --split parts-frames:10298-25891,+37590-67265,+80571-96337 --ui-language en


    mkvmerge v39.0.0 ('In The Waiting Line') 64-bit

    Error: The file 'E:\VDR\aa_win10\Law_&_Order_-_Special_Victims_Unit\Law_&_Order#3A_Special_Victims_Unit\Das_Buch_Esther\2020-01-15.21.05.5-0.rec\00001 temp files\00001.sup' is a non-supported file type (HD-DVD subtitles).


    Start: 21:31:23

    End: 21:31:24

    Duration: 00:00:00

  • -------------------------------- Error --------------------------------


    Output file missing


    -------------- Find Gain 1 using ffmpeg 2019-09-27 Patman --------------


    E:\Programme\Video\StaxRip-x64-2.0.6.0\Apps\Encoders\ffmpeg\ffmpeg.exe -i "E:\VDR\aa_win10\Law_&_Order_-_Special_Victims_Unit\Law_&_Order#3A_Special_Victims_Unit\Das_Buch_Esther\2020-01-15.21.05.5-0.rec\00001 temp files\00001.mp2" -sn -vn -hide_banner -af volumedetect -f null NUL


    [mp3 @ 000001a3cc9dafc0] Estimating duration from bitrate, this may be inaccurate

    Input #0, mp3, from 'E:\VDR\aa_win10\Law_&_Order_-_Special_Victims_Unit\Law_&_Order#3A_Special_Victims_Unit\Das_Buch_Esther\2020-01-15.21.05.5-0.rec\00001 temp files\00001.mp2':

    Duration: 01:14:59.45, start: 0.000000, bitrate: 192 kb/s

    Stream #0:0: Audio: mp2, 48000 Hz, stereo, fltp, 192 kb/s

    Stream mapping:

    Stream #0:0 -> #0:0 (mp2 (native) -> pcm_s16le (native))

    Press [q] to stop, [?] for help

    Output #0, null, to 'NUL':

    Metadata:

    encoder : Lavf58.33.100

    Stream #0:0: Audio: pcm_s16le, 48000 Hz, stereo, s16, 1536 kb/s

    Metadata:

    encoder : Lavc58.59.100 pcm_s16le

    video:0kB audio:843646kB subtitle:0kB other streams:0kB global headers:0kB muxing overhead: unknown

    [Parsed_volumedetect_0 @ 000001a3cca1cfc0] n_samples: 431947008

    [Parsed_volumedetect_0 @ 000001a3cca1cfc0] mean_volume: -26.6 dB

    [Parsed_volumedetect_0 @ 000001a3cca1cfc0] max_volume: -6.3 dB

    [Parsed_volumedetect_0 @ 000001a3cca1cfc0] histogram_6db: 37

    [Parsed_volumedetect_0 @ 000001a3cca1cfc0] histogram_7db: 242

    [Parsed_volumedetect_0 @ 000001a3cca1cfc0] histogram_8db: 2132

    [Parsed_volumedetect_0 @ 000001a3cca1cfc0] histogram_9db: 10609

    [Parsed_volumedetect_0 @ 000001a3cca1cfc0] histogram_10db: 38739

    [Parsed_volumedetect_0 @ 000001a3cca1cfc0] histogram_11db: 106736

    [Parsed_volumedetect_0 @ 000001a3cca1cfc0] histogram_12db: 269467

    [Parsed_volumedetect_0 @ 000001a3cca1cfc0] histogram_13db: 584130


    Start: 21:31:22

    End: 21:31:44

    Duration: 00:00:21


    --- Create avi file for audio cutting using ffmpeg 2019-09-27 Patman ---


    E:\Programme\Video\StaxRip-x64-2.0.6.0\Apps\Encoders\ffmpeg\ffmpeg.exe -f lavfi -i color=c=black:s=16x16:d=4499.440000000:r=25.000000000 -y -hide_banner -c:v copy "E:\VDR\aa_win10\Law_&_Order_-_Special_Victims_Unit\Law_&_Order#3A_Special_Victims_Unit\Das_Buch_Esther\2020-01-15.21.05.5-0.rec\00001 temp files\00001_temp\00001_cut_mm.avi"


    mkvmerge cannot cut audio without video so a avi file has to be created


    Input #0, lavfi, from 'color=c=black:s=16x16:d=4499.440000000:r=25.000000000':

    Duration: N/A, start: 0.000000, bitrate: N/A

    Stream #0:0: Video: rawvideo (I420 / 0x30323449), yuv420p, 16x16 [SAR 1:1 DAR 1:1], 25 tbr, 25 tbn, 25 tbc

    Output #0, avi, to 'E:\VDR\aa_win10\Law_&_Order_-_Special_Victims_Unit\Law_&_Order#3A_Special_Victims_Unit\Das_Buch_Esther\2020-01-15.21.05.5-0.rec\00001 temp files\00001_temp\00001_cut_mm.avi':

    Metadata:

    ISFT : Lavf58.33.100

    Stream #0:0: Video: rawvideo (I420 / 0x30323449), yuv420p, 16x16 [SAR 1:1 DAR 1:1], q=2-31, 25 tbr, 25 tbn, 25 tbc

    Stream mapping:

    Stream #0:0 -> #0:0 (copy)

    Press [q] to stop, [?] for help

    [Parsed_color_0 @ 000002177be5c9c0] EOF timestamp not reliable

    video:42182kB audio:0kB subtitle:0kB other streams:0kB global headers:0kB muxing overhead: 6.263340%


    Start: 21:31:44

    End: 21:31:45

    Duration: 00:00:00


    General

    Complete name : E:\VDR\aa_win10\Law_&_Order_-_Special_Victims_Unit\Law_&_Order#3A_Special_Victims_Unit\Das_Buch_Esther\2020-01-15.21.05.5-0.rec\00001 temp files\00001_temp\00001_cut_mm.avi

    Format : AVI

    Format/Info : Audio Video Interleave

    File size : 43.8 MiB

    Duration : 1 h 14 min

    Overall bit rate : 81.6 kb/s

    Writing application : Lavf58.33.100


    Video

    ID : 0

    Format : YUV

    Codec ID : I420

    Codec ID/Info : 8 bit Y plane followed by 8 bit 2x2 subsampled U and V planes.

    Duration : 1 h 14 min

    Bit rate : 76.8 kb/s

    Width : 16 pixels

    Height : 16 pixels

    Display aspect ratio : 1.000

    Frame rate : 25.000 FPS

    Scan type : Progressive

    Compression mode : Lossless

    Bits/(Pixel*Frame) : 12.000

    Stream size : 41.2 MiB (94%)


    ------------------- Cut audio using mkvmerge 39.0.0 -------------------


    E:\Programme\Video\StaxRip-x64-2.0.6.0\Apps\Support\MKVToolNix\mkvmerge.exe -o "E:\VDR\aa_win10\Law_&_Order_-_Special_Victims_Unit\Law_&_Order#3A_Special_Victims_Unit\Das_Buch_Esther\2020-01-15.21.05.5-0.rec\00001 temp files\00001_temp\00001_cut_.mkv" "E:\VDR\aa_win10\Law_&_Order_-_Special_Victims_Unit\Law_&_Order#3A_Special_Victims_Unit\Das_Buch_Esther\2020-01-15.21.05.5-0.rec\00001 temp files\00001_temp\00001_cut_mm.avi" "E:\VDR\aa_win10\Law_&_Order_-_Special_Victims_Unit\Law_&_Order#3A_Special_Victims_Unit\Das_Buch_Esther\2020-01-15.21.05.5-0.rec\00001 temp files\00001.mp2" --split parts-frames:10298-25891,+37590-67265,+80571-96337 --ui-language en


    mkvmerge v39.0.0 ('In The Waiting Line') 64-bit

    'E:\VDR\aa_win10\Law_&_Order_-_Special_Victims_Unit\Law_&_Order#3A_Special_Victims_Unit\Das_Buch_Esther\2020-01-15.21.05.5-0.rec\00001 temp files\00001_temp\00001_cut_mm.avi': Using the demultiplexer for the format 'AVI'.

    'E:\VDR\aa_win10\Law_&_Order_-_Special_Victims_Unit\Law_&_Order#3A_Special_Victims_Unit\Das_Buch_Esther\2020-01-15.21.05.5-0.rec\00001 temp files\00001.mp2': Using the demultiplexer for the format 'MPEG-1/2 Audio Layer II/III'.

    'E:\VDR\aa_win10\Law_&_Order_-_Special_Victims_Unit\Law_&_Order#3A_Special_Victims_Unit\Das_Buch_Esther\2020-01-15.21.05.5-0.rec\00001 temp files\00001_temp\00001_cut_mm.avi' track 0: Using the output module for the format 'VfW compatible video'.

    'E:\VDR\aa_win10\Law_&_Order_-_Special_Victims_Unit\Law_&_Order#3A_Special_Victims_Unit\Das_Buch_Esther\2020-01-15.21.05.5-0.rec\00001 temp files\00001.mp2' track 0: Using the output module for the format 'MPEG-1/2 Audio Layer II/III'.

    The file 'E:\VDR\aa_win10\Law_&_Order_-_Special_Victims_Unit\Law_&_Order#3A_Special_Victims_Unit\Das_Buch_Esther\2020-01-15.21.05.5-0.rec\00001 temp files\00001_temp\00001_cut_.mkv' has been opened for writing.

    The cue entries (the index) are being written...

    Multiplexing took 1 second.


    Start: 21:31:45

    End: 21:31:46

    Duration: 00:00:01


    General

    Complete name : E:\VDR\aa_win10\Law_&_Order_-_Special_Victims_Unit\Law_&_Order#3A_Special_Victims_Unit\Das_Buch_Esther\2020-01-15.21.05.5-0.rec\00001 temp files\00001_temp\00001_cut_.mkv

    Format : Matroska

    Format version : Version 4

    File size : 80.9 MiB

    Duration : 40 min 41 s

    Overall bit rate : 278 kb/s

    Encoded date : UTC 2020-01-19 20:31:45

    Writing application : mkvmerge v39.0.0 ('In The Waiting Line') 64-bit

    Writing library : libebml v1.3.9 + libmatroska v1.5.2


    Video

    ID : 1

    Format : YUV

    Codec ID : V_MS/VFW/FOURCC / I420

    Codec ID/Info : 8 bit Y plane followed by 8 bit 2x2 subsampled U and V planes.

    Duration : 40 min 41 s

    Bit rate : 76.8 kb/s

    Width : 16 pixels

    Height : 16 pixels

    Display aspect ratio : 1.000

    Frame rate mode : Constant

    Frame rate : 25.000 FPS

    Compression mode : Lossless

    Bits/(Pixel*Frame) : 12.000

    Stream size : 22.4 MiB (28%)

    Default : Yes

    Forced : No


    Audio

    ID : 2

    Format : MPEG Audio

    Format version : Version 1

    Format profile : Layer 2

    Codec ID : A_MPEG/L2

    Codec ID/Hint : MP2

    Duration : 40 min 41 s

    Bit rate mode : Constant

    Bit rate : 192 kb/s

    Channel(s) : 2 channels

    Sampling rate : 48.0 kHz

    Frame rate : 41.667 FPS (1152 SPF)

    Compression mode : Lossy

    Stream size : 55.9 MiB (69%)

    Default : Yes

    Forced : No


    ------------------ Demux MKV using mkvextract 39.0.0 ------------------


    E:\Programme\Video\StaxRip-x64-2.0.6.0\Apps\Support\MKVToolNix\mkvextract.exe "E:\VDR\aa_win10\Law_&_Order_-_Special_Victims_Unit\Law_&_Order#3A_Special_Victims_Unit\Das_Buch_Esther\2020-01-15.21.05.5-0.rec\00001 temp files\00001_temp\00001_cut_.mkv" tracks 1:"E:\VDR\aa_win10\Law_&_Order_-_Special_Victims_Unit\Law_&_Order#3A_Special_Victims_Unit\Das_Buch_Esther\2020-01-15.21.05.5-0.rec\00001 temp files\00001_temp\00001_cut_ ID1.mp2" --ui-language en


    Extracting track 1 with the CodecID 'A_MPEG/L2' to the file 'E:\VDR\aa_win10\Law_&_Order_-_Special_Victims_Unit\Law_&_Order#3A_Special_Victims_Unit\Das_Buch_Esther\2020-01-15.21.05.5-0.rec\00001 temp files\00001_temp\00001_cut_ ID1.mp2'. Container format: MPEG-1 Audio Layer 2/3


    Start: 21:31:46

    End: 21:31:47

    Duration: 00:00:00


    General

    Complete name : E:\VDR\aa_win10\Law_&_Order_-_Special_Victims_Unit\Law_&_Order#3A_Special_Victims_Unit\Das_Buch_Esther\2020-01-15.21.05.5-0.rec\00001 temp files\00001_temp\00001_cut_ ID1.mp2

    Format : MPEG Audio

    File size : 55.9 MiB

    Duration : 40 min 41 s

    Overall bit rate mode : Constant

    Overall bit rate : 192 kb/s


    Audio

    Format : MPEG Audio

    Format version : Version 1

    Format profile : Layer 2

    Duration : 40 min 41 s

    Bit rate mode : Constant

    Bit rate : 192 kb/s

    Channel(s) : 2 channels

    Sampling rate : 48.0 kHz

    Frame rate : 41.667 FPS (1152 SPF)

    Compression mode : Lossy

    Stream size : 55.9 MiB (100%)

  • ----------- Audio encoding 1 using ffmpeg 2019-09-27 Patman -----------


    E:\Programme\Video\StaxRip-x64-2.0.6.0\Apps\Encoders\ffmpeg\ffmpeg.exe -i "E:\VDR\aa_win10\Law_&_Order_-_Special_Victims_Unit\Law_&_Order#3A_Special_Victims_Unit\Das_Buch_Esther\2020-01-15.21.05.5-0.rec\00001 temp files\00001_temp\00001_cut_ ID1.mp2" -c:a libmp3lame -q:a 6 -af volume=6.3dB -y -hide_banner "E:\VDR\aa_win10\Law_&_Order_-_Special_Victims_Unit\Law_&_Order#3A_Special_Victims_Unit\Das_Buch_Esther\2020-01-15.21.05.5-0.rec\00001 temp files\00001_temp\00001_cut_ ID1_a1.mp3"


    [mp3 @ 000001cdf9a17000] Estimating duration from bitrate, this may be inaccurate

    Input #0, mp3, from 'E:\VDR\aa_win10\Law_&_Order_-_Special_Victims_Unit\Law_&_Order#3A_Special_Victims_Unit\Das_Buch_Esther\2020-01-15.21.05.5-0.rec\00001 temp files\00001_temp\00001_cut_ ID1.mp2':

    Duration: 00:40:41.33, start: 0.000000, bitrate: 192 kb/s

    Stream #0:0: Audio: mp2, 48000 Hz, stereo, fltp, 192 kb/s

    Stream mapping:

    Stream #0:0 -> #0:0 (mp2 (native) -> mp3 (libmp3lame))

    Press [q] to stop, [?] for help

    Output #0, mp3, to 'E:\VDR\aa_win10\Law_&_Order_-_Special_Victims_Unit\Law_&_Order#3A_Special_Victims_Unit\Das_Buch_Esther\2020-01-15.21.05.5-0.rec\00001 temp files\00001_temp\00001_cut_ ID1_a1.mp3':

    Metadata:

    TSSE : Lavf58.33.100

    Stream #0:0: Audio: mp3 (libmp3lame), 48000 Hz, stereo, fltp

    Metadata:

    encoder : Lavc58.59.100 libmp3lame

    video:0kB audio:29096kB subtitle:0kB other streams:0kB global headers:0kB muxing overhead: 0.000795%


    Start: 21:31:47

    End: 21:32:21

    Duration: 00:00:34


    Video Bitrate: 1787 -> 1814

    General

    Complete name : E:\VDR\aa_win10\Law_&_Order_-_Special_Victims_Unit\Law_&_Order#3A_Special_Victims_Unit\Das_Buch_Esther\2020-01-15.21.05.5-0.rec\00001 temp files\00001_temp\00001_cut_ ID1_a1.mp3

    Format : MPEG Audio

    File size : 28.4 MiB

    Duration : 40 min 41 s

    Overall bit rate mode : Variable

    Overall bit rate : 97.6 kb/s

    Writing library : LAME3.100


    Audio

    Format : MPEG Audio

    Format version : Version 1

    Format profile : Layer 3

    Format settings : Joint stereo / MS Stereo

    Duration : 40 min 41 s

    Bit rate mode : Variable

    Bit rate : 96.0 kb/s

    Channel(s) : 2 channels

    Sampling rate : 48.0 kHz

    Frame rate : 41.667 FPS (1152 SPF)

    Compression mode : Lossy

    Stream size : 28.4 MiB (100%)

    Writing library : LAME3.100


    ----------- Video encoding command line encoder: XviD 2 pass -----------


    cmd.exe /C call "E:\VDR\aa_win10\Law_&_Order_-_Special_Victims_Unit\Law_&_Order#3A_Special_Victims_Unit\Das_Buch_Esther\2020-01-15.21.05.5-0.rec\00001 temp files\00001_temp\Law & Order - Special Victims Unit - 16x0 - Das Buch Esther_encode.bat"


    @echo off

    @set PATH=E:\Programme\Video\StaxRip-x64-2.0.6.0\Apps\Encoders\xvid_encraw\;%PATH%


    xvid_encraw -cq 2 -smoother 0 -max_key_interval 250 -nopacked -vhqmode 4 -qpel -notrellis -max_bframes 1 -bvhq -bquant_ratio 162 -bquant_offset 0 -threads 1 -i "E:\VDR\aa_win10\Law_&_Order_-_Special_Victims_Unit\Law_&_Order#3A_Special_Victims_Unit\Das_Buch_Esther\2020-01-15.21.05.5-0.rec\00001 temp files\00001_temp\Law & Order - Special Victims Unit - 16x0 - Das Buch Esther.avs" -avi "E:\VDR\aa_win10\Law_&_Order_-_Special_Victims_Unit\Law_&_Order#3A_Special_Victims_Unit\Das_Buch_Esther\2020-01-15.21.05.5-0.rec\00001 temp files\00001_temp\Law & Order - Special Victims Unit - 16x0 - Das Buch Esther_out.avi" -par 16:11


    xvid_encraw - raw mpeg4 bitstream encoder written by Christoph Lampert

    Trying to retrieve width and height from input header

    xvidcore build version: xvid-1.3.5

    Bitstream version: 1.3.5

    Detected CPU flags: ASM MMX MMXEXT SSE SSE2 SSE3 SSE41 TSC

    Detected 16 cpus, using 1 threads.

    Tot: enctime(ms) =2096889.00, length(bytes) = 556633811

    Avg: enctime(ms) = 34.36, fps = 29.11, length(bytes) = 9120

    I frames: 794 frames, size = 29873/23719516, quants = 2 / 2.00 / 2

    P frames: 30583 frames, size = 13050/399118966, quants = 2 / 2.00 / 2

    B frames: 29657 frames, size = 4511/133795329, quants = 3 / 3.00 / 3


    Start: 21:31:24

    End: 22:08:58

    Duration: 00:37:33

  • Bekomme bei der StaxRip Version 2.0.8.0 64-bit unter Win7x64 folgende Fehlermeldung,

    wenn ich die CROP Vorschau oder die PREVIEW Vorschau (egal bei welchen Video) öffnen möchte:


    InvalidCastException


    Hoffe mir kann da jemand weiter helfen?

  • Zitat

    Leider vermisste ich ProjektX um DVB-Aufnahmen auf Fehler zu überprüfen ggf. zu korrigieren und zu Demuxen. Ein Demuxer mit Fehlerkorrektur ist nicht dabei, oder? Mein bisheriger Work-A-Round ist mit StaxRip 1.3.1.0 demuxen.

    Könntest du konfigurieren unter Main Menu > Tools > Settings > Preprocessing, die Einstellungen dazu kannst du der alten Version entnehmen.

    Zitat

    Ich kann keine mit Xvid Codierten Videos mehr als AVI Speichern.

    Eventuell versuchen ein neues Videoencoder Profil zu erzeugen, unter Edit Profiles > Add, bei mir funktioniert XVID noch, für so alte Sachen kann ich nur noch eingeschränkten Support machen.

    Zitat

    Was ist der Qualitativ hochwertigste deinterlancer? yadifmod2, oder?

    QTGMC

    Zitat
    Gibt es eine Möglichkeit, das er wieder nachfragt welche Template genutzt werden soll, wenn ich ein FIle (per Drag and Drop) lade?

    Dafür gibt es eine Einstellung unter: Main Menu > Tools > Settings > General

    Zitat

    Bekomme bei der StaxRip Version 2.0.8.0 64-bit unter Win7x64 folgende Fehlermeldung,

    wenn ich die CROP Vorschau oder die PREVIEW Vorschau (egal bei welchen Video) öffnen möchte:

    Jetzt ist die Schriftart größer geworden, die Forensoftware ist gewöhnungsbedürftig. 😀

    Jetzt geht es wieder. 😀


    Eventuell fehlt dir ein Update:

    Direct2D Run-time requirements


    • Windows 7 or Windows Vista with Service Pack 2 (SP2) and Platform Update for Windows Vista and later.